Происшествие у Фантом-Хилл / Incident at Phantom Hill
Страна: США
Студия: Universal Pictures
Жанр: приключения, вестерн
Год выпуска: 1966
Продолжительность: 01:27:34--Перевод: Одноголосый закадровый NezPerce по субтитрам Ketsalk
Субтитры: русские Ketsalk
Оригинальная аудиодорожка: английский--Режиссер: Эрл Беллами / Earl Bellamy--В ролях: Роберт Фуллер, Жослин Лэйн, Дэн Дюрьи, Том Симкокс, Линден Чайлз, Клод Экинс, Ной Бири мл., Пол Фикс, Денвер Пайл, Уильям Фиппс …--Описание: В конце гражданской войны груз золота, ценой в миллион долларов, был похищен и спрятан в пустыне. Многие хотят до него добраться, но сделать это не просто. Трое отчаянных парней сражаются с индейцами, слепыми силами природы, и друг с другом, чтобы заполучить эти деньги.--imdb | kinopoisk | Сэмпл--Тип релиза: BDRemux 1080p
Контейнер: MKV
Видео: AVC / 1920x1080 (16:9) / 23,976 fps / 22986 Kbps / High@L4.1
Аудио 1: Russian / AC3 / 48.0 KHz / 2.0 / 192 kbps / VO / NezPerce
Аудио 2: English / FLAC / 48.0 KHz / 2.0 / 225 kbps / 16 bit
Формат субтитров: softsub (SRT)

Дополнительно

За основу раздачи взят ремукс Incident at Phantom Hill 1966 1080p BluRay REMUX AVC FLAC 2.0-EPSiLON
За озвучку и субтитры спасибо tong777

MediaInfo

Общее
Уникальный идентификатор : 179226475569657856159959819012767845121 (0x86D5C37C1E85D5CC4DF17B667FCD8B01)
Полное имя : E:\-List-\Incident.at.Phantom.Hill.1966.BDRemux.1080p-List-.mkv
Формат : Matroska
Версия формата : Version 4 / Version 2
Размер файла : 14,3 Гбайт
Продолжительность : 1 ч. 27 м.
Режим общего битрейта : Переменный
Общий поток : 23,4 Мбит/сек
Название фильма : Incident.at.Phantom.Hill.1966.BDRemux.1080p-List-
Дата кодирования : UTC 2019-02-11 04:58:57
Программа кодирования : mkvmerge v31.0.0 ('Dolores In A Shoestand') 64-bit
Библиотека кодирования : libebml v1.3.6 + libmatroska v1.4.9
Видео
Идентификатор : 1
Формат : AVC
Формат/Информация : Advanced Video Codec
Профиль формата : High@L4.1
Настройки формата : CABAC / 2 Ref Frames
Параметр CABAC формата : Да
Параметр RefFrames формата : 2 кадра
Идентификатор кодека : V_MPEG4/ISO/AVC
Продолжительность : 1 ч. 27 м.
Вид битрейта : Переменный
Битрейт : 23,0 Мбит/сек
Максимальный битрейт : 30,2 Мбит/сек
Ширина : 1920 пикселей
Высота : 1080 пикселей
Соотношение сторон : 16:9
Режим частоты кадров : Постоянный
Частота кадров : 23,976 (24000/1001) кадра/сек
Цветовое пространство : YUV
Субдискретизация насыщенности : 4:2:0
Битовая глубина : 8 бит
Тип развёртки : Прогрессивная
Бит/(Пиксели*Кадры) : 0.462
Размер потока : 14,0 Гбайт (98%)
Заголовок : Incident.at.Phantom.Hill.1966.BDRemux.1080p-List-
Default : Да
Forced : Нет
Аудио #1
Идентификатор : 2
Формат : AC-3
Формат/Информация : Audio Coding 3
Идентификатор кодека : A_AC3
Продолжительность : 1 ч. 27 м.
Вид битрейта : Постоянный
Битрейт : 192 Кбит/сек
Каналы : 2 канала
Расположение каналов : Front: L R
Частота : 48,0 КГц
Частота кадров : 31,250 кадров/сек (1536 SPF)
Битовая глубина : 16 бит
Метод сжатия : С потерями
Размер потока : 120 Мбайт (1%)
Заголовок : VO (NezPerce)
Язык : Russian
ServiceKind/String : Complete Main
Default : Да
Forced : Нет
Аудио #2
Идентификатор : 3
Формат : FLAC
Формат/Информация : Free Lossless Audio Codec
Идентификатор кодека : A_FLAC
Продолжительность : 1 ч. 27 м.
Вид битрейта : Переменный
Битрейт : 225 Кбит/сек
Каналы : 2 канала
Расположение каналов : Front: L R
Частота : 48,0 КГц
Частота кадров : 11,719 кадров/сек (4096 SPF)
Битовая глубина : 16 бит
Размер потока : 141 Мбайт (1%)
Библиотека кодирования : libFLAC 20080709 (UTC 2008-07-09)
Язык : English
Default : Нет
Forced : Нет
Текст #1
Идентификатор : 4
Формат : UTF-8
Идентификатор кодека : S_TEXT/UTF8
Идентификатор кодека/Информация : UTF-8 Plain Text
Продолжительность : 1 ч. 27 м.
Битрейт : 61 бит/сек
ElementCount : 739
Размер потока : 39,3 Кбайт (0%)
Заголовок : Ketsalk
Язык : Russian
Default : Нет
Forced : Нет
Текст #2
Идентификатор : 5
Формат : UTF-8
Идентификатор кодека : S_TEXT/UTF8
Идентификатор кодека/Информация : UTF-8 Plain Text
Продолжительность : 1 ч. 24 м.
Битрейт : 51 бит/сек
ElementCount : 1051
Размер потока : 32,0 Кбайт (0%)
Язык : English
Default : Нет
Forced : Нет
Меню
00:00:00.000 : en:Chapter 1
00:04:36.401 : en:Chapter 2
00:11:36.446 : en:Chapter 3
00:16:40.541 : en:Chapter 4
00:26:05.397 : en:Chapter 5
00:36:35.026 : en:Chapter 6
00:46:21.195 : en:Chapter 7
00:53:34.586 : en:Chapter 8
00:59:53.215 : en:Chapter 9
01:09:55.983 : en:Chapter 10
01:18:39.924 : en:Chapter 11
01:27:07.347 : en:Chapter 12

Скриншоты